#TITLE:Top Man;
#SUBTITLE:Megaman III;
#ARTIST:Capcom;
#TITLETRANSLIT:;
#SUBTITLETRANSLIT:;
#ARTISTTRANSLIT:;
#CREDIT:;
#BANNER:Top Man.png;
#BACKGROUND:Top Man-bg.png;
#LYRICSPATH:;
#CDTITLE:!exige.png;
#MUSIC:Top Man.mp3;
#OFFSET:-0.134;
#SAMPLESTART:30.094;
#SAMPLELENGTH:20.500;
#SELECTABLE:YES;
#BPMS:0.000=179.900;
#STOPS:;
#BGCHANGES:;
// cache tags:
#FIRSTBEAT:0.000;
#LASTBEAT:288.000;
#SONGFILENAME:Songs/Music V.I.P ^_^/Top Man (Exige)/Top Man.sm;
#HASMUSIC:1;
#HASBANNER:1;
#MUSICLENGTH:101.127;
// end cache tags

//---------------dance-single - ----------------
#NOTES:
     dance-single:
     :
     Challenge:
     13:
     1.000,1.000,1.000,0.158,1.000,716.000,223.000,16.000,0.000,0.000:
0011
0011
0101
0101
0000
0000
0101
0101
,
0110
0110
0000
0000
0110
0110
1010
1010
,
0110
0110
0101
0101
0000
0000
1010
1010
,
0110
0000
0110
0000
0000
0000
0000
0000
0110
1000
0110
0001
0110
1000
0110
0001
,
0110
1100
0011
0110
1100
0011
0110
1100
,
0011
1001
1100
1001
0101
1010
1100
1001
,
0000
1001
0101
0011
1100
0110
1001
0110
,
0101
1100
0011
0110
0011
1100
0101
0110
,
0000
0110
0011
1100
0110
0011
1010
0110
,
0101
1001
0101
0110
1010
1100
0011
1001
,
0000
1001
0011
1001
0110
1010
1100
0110
,
0101
0101
0000
0110
0000
1010
1010
0110
,
0101
0011
0101
0011
1010
1100
1010
1100
,
0000
0110
1001
0110
0011
1100
0011
1100
,
0001
0100
0010
1000
0001
0100
0010
1000
0001
0100
0010
1000
0001
0100
0010
1000
0001
0100
0010
1000
0001
0100
0010
1000
,
0001
0100
0010
1000
0001
0100
0010
1000
0001
0100
0010
1000
0001
0100
0010
1000
0001
0100
0010
0000
0000
0020
0000
0000
,
0000
0000
0100
0000
0100
0130
0010
0120
,
0000
0100
0100
0000
0100
0100
0000
0030
,
1000
0010
0100
0001
1000
0010
0100
0001
1000
0010
0100
0001
1000
0010
0100
0001
1000
0010
0100
0001
1000
0010
0100
0001
,
1000
0010
0100
0001
1000
0010
0100
0001
1000
0010
0100
0001
1000
0010
0100
0001
1000
0010
0100
0000
0000
0200
0000
0000
,
0000
0000
0010
0000
0010
0310
0001
0012
,
0000
0010
0010
0000
0010
0010
0000
0003
,
0001
0100
0010
1000
0001
0100
0010
1000
0001
0100
0010
1000
0100
0001
1000
0010
0100
0001
1000
0010
0100
0001
1000
0010
,
0001
0100
0010
1000
0100
0001
0010
1000
0010
0100
0001
0100
1000
0010
0100
0001
1000
0010
0100
0000
0000
0200
0000
0000
,
0000
0000
0010
0000
0010
0310
0100
2100
,
0000
0100
0100
0000
0100
0100
0000
3000
,
0010
0001
1000
0010
0100
1000
0010
0100
0001
1000
0001
1000
0100
0010
0001
0010
1000
0001
1000
0100
0001
0010
0001
0100
,
0010
1000
0010
0001
0100
0010
0100
0001
0010
1000
0010
0001
0010
0100
0001
0100
1000
0001
0010
0000
0000
0200
0000
0000
,
0000
0000
0010
0000
0010
0310
0001
1002
,
0000
0010
0010
0000
0010
0003
1001
1001
,
0001
0000
0000
0000
0000
0000
0010
0001
0000
0000
0000
0000
0010
0001
0000
0010
0000
0000
0000
0000
0000
1000
0100
0000
,
0000
0000
0000
0010
0100
0000
0000
0000
0000
0010
0100
0000
0010
0000
0000
1001
0000
0000
1001
0000
0000
1001
0000
0000
,
0001
0000
0000
0000
0000
0000
0001
0010
0000
0000
0000
0000
0001
0010
0000
0100
0000
0000
0000
0000
0000
0001
0010
0000
,
0000
0000
0000
0000
0000
0000
0001
0000
0010
0000
0000
0000
0000
0000
0000
0000
0000
0000
0001
0000
0010
0000
0000
0000
0001
0000
0000
0100
0000
0000
0001
0000
0000
0100
0000
0000
0001
0000
0000
0100
0000
0000
0001
0000
0000
0100
0000
0000
,
1001
0000
0011
0000
0000
0101
0101
0110
,
0000
0110
0110
1010
0000
1010
1010
1100
,
1100
0000
0110
0000
0000
0110
0110
0101
,
0000
0001
0000
0001
0000
0001
0000
0001
,
1001
0011
1001
0110
1010
1100
0011
0110
,
1100
0011
0110
1100
1001
1100
0110
0011
,
0000
0011
1001
0110
1100
0011
1001
1100
,
0101
0011
1100
1001
0101
0110
1010
1100
,
0000
1100
1010
0011
0110
1010
1100
1001
,
0110
1010
0110
0011
1001
0110
1100
0011
,
0000
0011
0110
0011
1100
0110
1100
1001
,
0110
0110
0000
0110
0000
0110
1001
0110
,
0011
1100
1001
0011
1100
1001
0011
0110
,
0000
0110
1001
1010
0011
1010
0110
0011
,
0001
0010
0100
0001
0010
0100
0001
0010
0100
0010
0100
1000
0010
0100
1000
0010
0100
1000
0010
0100
0010
1000
0100
1000
,
0001
0010
0001
1000
0100
0010
1000
0100
0010
1000
0100
0010
0100
0010
0001
0010
0100
1000
0001
0000
0000
0020
0000
0000
,
0000
0000
0100
0000
0100
0130
0100
0102
,
0000
1000
0010
0000
0010
1000
0000
0003
,
0100
0001
1000
0010
0100
0001
1000
0010
0100
0001
1000
0010
0100
0001
0010
1000
0100
0001
0100
1000
0100
0001
0100
1000
,
0001
0100
0001
0010
0100
0001
0100
0010
1000
0010
0100
1000
0001
0100
0001
0010
1000
0010
0100
0000
0000
2000
0000
0000
,
0000
0000
0100
0000
0100
3100
1000
1002
,
0000
0010
0100
0000
0010
0010
0000
0003
,
0001
0010
1000
0100
0001
0010
1000
0100
0001
0010
0100
1000
0010
0100
0001
0010
0100
1000
0001
0010
0100
1000
0010
0100
,
0001
1000
0010
0100
0001
1000
0010
0100
0001
0010
0100
1000
0010
0100
0001
0010
0100
1000
0100
0000
0000
0002
0000
0000
,
0000
0000
0010
0000
0100
1003
0100
0012
,
0000
0100
0100
0000
0010
0010
0000
0003
,
1000
0100
0010
0001
0010
0100
1000
0100
0010
0100
1000
0100
0010
0001
0010
0100
0010
0001
1000
0100
0010
0100
1000
0001
,
0010
0100
0010
0001
0010
0100
1000
0010
0100
0001
0010
0100
1000
0001
0010
0100
0001
0010
0100
0000
0000
0020
0000
0000
,
0000
0000
0001
0000
0001
0031
1000
1020
,
0000
1000
0100
0000
0100
0130
0011
0011
,
0001
0000
0000
0000
0000
0000
0001
0010
0000
0000
0000
0000
0001
1000
0000
0001
0000
0000
0000
0000
0000
0001
0100
0000
,
0000
0000
0000
0001
0010
0000
0000
0000
0000
0001
0100
0000
0001
0000
0000
0101
0000
0000
0101
0000
0000
0101
0000
0000
,
0100
0000
0000
0000
0000
0000
0100
0010
0000
0000
0000
0000
0100
0001
0000
0100
0000
0000
0000
0000
0000
0100
1000
0000
,
0000
0000
0000
0000
0000
0000
0100
0000
0010
0000
0000
0000
0000
0000
0000
0000
0000
0000
0100
0000
0010
0000
0000
0000
0100
0000
0000
0010
0000
0000
0100
0000
0000
0010
0000
0000
0100
0000
0000
0010
0000
0000
0100
0000
0000
0010
0000
0000
,
0101
0000
0101
0000
0000
0110
0110
1010
,
0000
0110
0110
0101
0000
0110
1100
0110
,
1010
0000
0101
0000
0000
0101
0101
1001
,
0000
0001
0000
0001
0000
0001
0000
0001
,
1001
0000
0000
0000
;

//---------------dance-single - ----------------
#NOTES:
     dance-single:
     :
     Hard:
     11:
     1.000,1.000,1.000,0.653,0.613,584.000,244.000,66.000,0.000,0.000:
0011
0011
0101
0101
0000
0000
0101
0101
,
0110
0110
0000
0000
0110
0110
1010
1010
,
0110
0110
0101
0101
0000
0000
1010
1010
,
0110
0000
0110
0000
0000
0000
0000
0000
0001
0010
0001
0010
0001
0010
0001
0010
,
1100
1100
0011
0110
1100
0011
0110
1100
,
0011
1001
1100
1001
0101
1010
1100
1001
,
0000
1001
0101
0011
1100
0110
1001
0110
,
0101
1100
0011
0110
0011
1100
0101
0110
,
0000
0110
0011
1100
0110
0011
1010
0110
,
0101
1001
0101
0110
1010
1100
0011
1001
,
0000
1001
0011
1001
0110
1010
1100
0110
,
0101
0101
0000
0110
0000
1010
1010
0110
,
0101
0011
0101
0011
1010
1100
1010
1100
,
0000
0110
1001
0110
0011
1100
0011
1100
,
0001
0010
0100
1000
0010
0100
1000
0010
0100
1000
0001
0010
0100
0001
0010
0100
,
0010
0100
1000
0010
0100
0001
0010
0100
1000
0001
0010
0100
0010
0000
0020
0000
,
0000
0000
0100
0000
0100
0130
0010
0120
,
0000
0100
0100
0000
0100
0100
0000
0030
,
1000
0010
1000
0010
0100
0001
0100
0001
0010
1000
0010
1000
0100
0010
0100
0010
,
0001
0010
0001
0010
0100
1000
0100
1000
0001
0010
0100
1000
0001
0000
0200
0000
,
0000
0000
0010
0000
0010
0310
0001
0012
,
0000
0010
0010
0000
0010
0010
0000
0003
,
0001
0010
1000
0100
0001
0010
1000
0100
0010
0100
0010
0001
1000
0001
0010
0100
,
1000
0001
1000
0100
0010
1000
0010
0100
1000
0001
0010
0100
1000
0000
0200
0000
,
0000
0000
0010
0000
0010
0310
0100
2100
,
0000
0100
0100
0000
0100
0100
0000
3000
,
0010
0100
0010
0100
0001
0010
0001
0010
1000
0100
1000
0100
0001
0010
0001
1000
,
0100
1000
0001
0100
0001
1000
0010
1000
0001
1000
0001
1000
0100
0000
0200
0000
,
0000
0000
0010
0000
0010
0310
0001
1002
,
0000
0010
0010
0000
0010
0003
1001
1001
,
0001
0000
0000
0000
0220
0330
0000
0000
0022
0033
0022
0033
0000
0000
2200
3300
,
0000
0000
0022
0033
0000
0000
0220
0330
0220
0330
1001
0000
1001
0000
1001
0000
,
0001
0000
0000
0000
0001
0000
0000
0000
0202
0303
0220
0330
0000
0000
0022
0033
,
0000
0000
2020
3030
0000
0000
0220
0330
0001
0100
0001
0100
0001
0100
0001
0100
,
1001
0000
0011
0000
0000
0101
0101
0110
,
0000
0110
0110
1010
0000
1010
1010
1100
,
1100
0000
0110
0000
0000
0110
0110
0101
,
0000
0001
0000
0001
0000
0001
0000
0001
,
1001
0011
1001
0110
1010
1100
0011
0110
,
1100
0011
0110
1100
1001
1100
0110
0011
,
0000
0011
1001
0110
1100
0011
1001
1100
,
0101
0011
1100
1001
0101
0110
1010
1100
,
0000
1100
1010
0011
0110
1010
1100
1001
,
0110
1010
0110
0011
1001
0110
1100
0011
,
0000
0011
0110
0011
1100
0110
1100
1001
,
0110
0110
0000
0110
0000
0110
1001
0110
,
0011
1100
1001
0011
1100
1001
0011
0110
,
0000
0110
1001
1010
0011
1010
0110
0011
,
0001
0100
0010
1000
0001
0100
0010
1000
0100
0010
0100
1000
0001
0010
0100
0010
,
0001
0010
0001
1000
0100
0010
0001
0010
0001
1000
0100
0010
0001
0000
0020
0000
,
0000
0000
0100
0000
0100
0130
0100
0102
,
0000
1000
0010
0000
0010
1000
0000
0003
,
0100
0010
1000
0100
0001
0010
1000
0010
1000
0010
0100
0010
0001
0010
1000
0010
,
0100
1000
0010
1000
0001
1000
0010
0100
1000
0001
0010
0100
1000
0000
2000
0000
,
0000
0000
0100
0000
0100
3100
1000
1002
,
0000
0010
0100
0000
0010
0010
0000
0003
,
0001
0100
0010
1000
0001
0100
0010
1000
0001
1000
0010
0100
0001
1000
0010
0100
,
0001
1000
0100
0010
0001
1000
0100
0010
1000
0010
0100
1000
0010
0000
0002
0000
,
0000
0000
0010
0000
0100
1003
0100
0012
,
0000
0100
0100
0000
0010
0010
0000
0003
,
1000
0001
0100
0001
0010
0001
1000
0001
0100
0001
0010
0001
1000
0001
0100
0001
,
0010
0100
1000
0010
0100
0001
0010
0100
1000
0100
1000
0001
0100
0000
0020
0000
,
0000
0000
0001
0000
0001
0031
1000
1020
,
0000
1000
0100
0000
0100
0130
0011
0011
,
0001
0000
0000
0000
0220
0330
0000
0000
2002
3003
0202
0303
0000
0000
0202
0303
,
0000
0000
0022
0033
0000
0000
0220
0330
0022
0033
0101
0000
0101
0000
0101
0000
,
0100
0000
0000
0000
0220
0330
0000
0000
0202
0303
2200
3300
0000
0000
2200
3300
,
0000
0000
2020
3030
0000
0000
0022
0033
0100
0010
0100
0010
0100
0010
0100
0010
,
1001
0000
0101
0000
0000
0110
0110
1010
,
0000
0110
0110
0101
0000
0110
1100
0110
,
1010
0000
0101
0000
0000
0101
0101
1001
,
0000
0001
0000
0001
0000
0001
0000
0001
,
1001
0000
0000
0000
;
